Skip to main content

Dub Apocalypse Live at The Dive Bar on 2013-08-30

Audio Preview

etree
Dub Apocalypse Live at The Dive Bar on 2013-08-30






Collection DubApocalypse
Band/Artist Dub Apocalypse
Venue The Dive Bar
Location Worcester, MA

Source Schoeps MK22/MK4>Sonosax SX-R4
Lineage WAV>USB>Macbook Pro>Audacity(mixing)>Wave Editor(tracking,fades,resample(izotope)/dither(mbit+)to 16 bit/44.1k)>XAct(FLAC 8,ffp,fix sbe)
Taped by Andy Murray
Transferred by Andy Murray

Notes

Dub Apocalypse
2013-08-30
Dive Bar (Patio)
Worcester, MA

Mics were stage lip DFC
MK22s 21cm/110 degrees
MK4s were NOS

Source:
Schoeps MK22>KC5>CMC6>Sonosax SX-R4 &
Schoeps mk4>Nbob actives>Naiant PFAs>Sonosax SX-R4 (24bit/48khz)

Lineage:
WAV>USB>Macbook Pro>Audacity(mixing)>Wave Editor(tracking,fades,resample(izotope)/dither(mbit+)to 16 bit/44.1k)>XAct(FLAC 8,ffp,fix sbe)

Taped by: Andy Murray
Transferred by: Andy Murray

Tommy Benedetti - Drums
Van Gordon Martin - Guitar
Johnny Trama - Guitar
Aaron Bellamy - Bass
Timo Shanko - Saxophone

2 sets

length expanded size cdr WAVE problems fmt ratio filename
9:26.55 99971804 B --- -- ----- wav 1.0000 dubapoc2013-08-30_mk22mk4mix_1644_d1t01.wav
12:49.18 135693980 B --- -- ----- wav 1.0000 dubapoc2013-08-30_mk22mk4mix_1644_d1t02.wav
9:19.03 98614700 B --- -- ----- wav 1.0000 dubapoc2013-08-30_mk22mk4mix_1644_d1t03.wav
9:15.02 97906748 B --- -- ----- wav 1.0000 dubapoc2013-08-30_mk22mk4mix_1644_d1t04.wav
9:26.40 99936524 B --- -- ----- wav 1.0000 dubapoc2013-08-30_mk22mk4mix_1644_d1t05.wav
9:17.51 98374796 B --- -- ----- wav 1.0000 dubapoc2013-08-30_mk22mk4mix_1644_d1t06.wav
8:22.07 88569308 B --- -- ----- wav 1.0000 dubapoc2013-08-30_mk22mk4mix_1644_d2t01.wav
11:24.34 120737612 B --- -- ----- wav 1.0000 dubapoc2013-08-30_mk22mk4mix_1644_d2t02.wav
10:03.72 106538588 B --- -- ----- wav 1.0000 dubapoc2013-08-30_mk22mk4mix_1644_d2t03.wav
9:38.52 102081548 B --- -- ----- wav 1.0000 dubapoc2013-08-30_mk22mk4mix_1644_d2t04.wav
10:31.02 111313148 B --- -- ----- wav 1.0000 dubapoc2013-08-30_mk22mk4mix_1644_d2t05.wav
8:10.28 86501900 B --- -- ----- wav 1.0000 dubapoc2013-08-30_mk22mk4mix_1644_d2t06.wav
117:44.64 1246240656 B 1.0000 (12 files)

comment
Reviews

There are no reviews yet. Be the first one to write a review.
DOWNLOAD OPTIONS
Uploaded by
andyjah
on 8/31/2013
Views
198
SIMILAR ITEMS (based on metadata)
eye
Title
Date Archived
Creator
Dub Apocalypse
by Dub Apocalypse
etree
eye 86
favorite 0
comment 0
Source: Schoeps MK22/MK4>Sonosax SX-R4
Dub Apocalypse
by Dub Apocalypse
etree
eye 46
favorite 0
comment 0
Source: Schoeps MK22>KC5>CMC6>Sonosax SX-R4(24bit/48khz)
Dub Apocalypse
by Dub Apocalypse
etree
eye 84
favorite 0
comment 0
Source: DPA 4011 > V3 Digital > R44 (24/96)
Dub Apocalypse
by Dub Apocalypse
etree
eye 49
favorite 0
comment 0
Source: Schoeps MK22>KC5>CMC6>Sonosax SX-R4(24bit/48khz)
Dub Apocalypse
by Dub Apocalypse
etree
eye 52
favorite 0
comment 0
Source: Schoeps MK22>KC5>CMC6>Sonosax SX-R4(24bit/48khz)
Dub Apocalypse
by Dub Apocalypse
etree
eye 621
favorite 1
comment 1
favoritefavoritefavoritefavoritefavorite ( 1 reviews )
Source: Schoeps MK22>KC5>CMC6>Sonosax SX-R4(24bit/48khz)
Dub Apocalypse
by Dub Apocalypse
etree
eye 84
favorite 0
comment 0
Source: Schoeps MK22/MK4>Sonosax SX-R4
Dub Apocalypse
by Dub Apocalypse
etree
eye 72
favorite 0
comment 0
Source: Schoeps MK22>KC5>CMC6>Sonosax SX-R4(24bit/96khz)
Dub Apocalypse
by Dub Apocalypse
etree
eye 87
favorite 0
comment 0
Source: Schoeps MK22/MK4>Sonosax SX-R4
Dub Apocalypse
by Dub Apocalypse
etree
eye 136
favorite 0
comment 0
Source: Schoeps MK22>KC5>CMC6>Sonosax SX-R4(24bit/96khz)